She's All That 1999 720p BluRay x264 HD4U -FILME - 2 Ianuarie 2012 - Xtorrent
Meniu site
Formularul pentru autentificare
Căutare
Asculta:
  
Principală » 2012 » Ianuarie » 2 » She's All That 1999 720p BluRay x264 HD4U -FILME
9:26 PM
She's All That 1999 720p BluRay x264 HD4U -FILME
DownloadShe-s_All_That_1999_720p_BluRay_x264_HD4U.torrent
Small DescriptionComedy,Romance

Description


She's All That 1999 720p BluRay x264 HD4U

Video
Video
ID                               : 1
Format                           : AVC
Format/Info                      : Advanced Video Codec
Format profile                   : High@L3.1
Format settings, CABAC           : Yes
Format settings, ReFrames        : 5 frames
Muxing mode                      : Header stripping
Codec ID                         : V_MPEG4/ISO/AVC
Duration                         : 1h 35mn
Bit rate                         : 5 029 Kbps
Width                            : 1 280 pixels
Height                           : 696 pixels
Display aspect ratio             : 16:9
Frame rate                       : 23.976 fps
Color space                      : YUV
Chroma subsampling               : 4:2:0
Bit depth                        : 8 bits
Scan type                        : Progressive
Bits/(Pixel*Frame)               : 0.235
Stream size                      : 3.27 GiB (75%)
Writing library                  : x264 core 120 r2120 0c7dab9

Audio
ID                               : 2
Format                           : DTS
Format/Info                      : Digital Theater Systems
Muxing mode                      : Header stripping
Codec ID                         : A_DTS
Duration                         : 1h 35mn
Bit rate mode                    : Constant
Bit rate                         : 1 510 Kbps
Channel(s)                       : 6 channels
Channel positions                : Front: L C R, Side: L R, LFE
Sampling rate                    : 48.0 KHz
Bit depth                        : 24 bits
Compression mode                 : Lossy
Stream size                      : 1.01 GiB (23%)
Language                         : English

http://www.imdb.com/title/tt0160862/


  

  




TypeFilme HD
Last seederLast activity 2:14 ago
Size4.39 GB (4,708,720,809 bytes)
Added2011-12-31 14:29:21
Hits0
Snatched138 time(s)
Upped byADMIN
Num files
4 files
Info hash4c138b035108a06e4769e4d2c786764b7cfc6070

Vizualizări: 187 | Adăugat de: ovysis | Rating: 0.0/0
Total comentarii : 0
Prenume *:
Email *:
Cod *:
Calendar
«  Ianuarie 2012  »
LnMrMrcJoiVnSaDm
      1
2345678
9101112131415
16171819202122
23242526272829
3031
Arhiva materialelor
Sondajul nostru
Ce joc preferati?
Total răspunsuri: 14
Mini-chat
200
Siteuri de filme si jocuri
  • Filme Noi
  • Filme Noi
  • Jocuri Online
  • Muzica Noua
  • Youtube
  • Pe-Teava.ro
  • Statistici

    Total online: 1
    Vizitatori: 1
    Utilizatori: 0
    Copyright Xtorrent © 2016