The Witches of Oz.2011.720p.BluRay.x264-SKmbr - FILME - 5 Ianuarie 2012 - Xtorrent
Meniu site
Formularul pentru autentificare
Căutare
Asculta:
  
Principală » 2012 » Ianuarie » 5 » The Witches of Oz.2011.720p.BluRay.x264-SKmbr - FILME
12:10 PM
The Witches of Oz.2011.720p.BluRay.x264-SKmbr - FILME
DownloadThe_Witches_of_Oz.2011.720p.BluRay.x264-SKmbr.torrent
Small DescriptionAction | Comedy | Fantasy

Description


Complete name                    : The Witches of Oz.2011.720p.BluRay.x264-SKmbr.mkv
Format                           : Matroska
Format version                   : Version 2
File size                        : 4.36 GiB
Duration                         : 2h 45mn
Overall bit rate                 : 3 770 Kbps
Encoded date                     : UTC 2011-12-29 13:22:47
Writing application              : mkvmerge v5.1.0 ('And so it goes') built on Nov 28 2011 23:58:28
Writing library                  : libebml v1.2.3 + libmatroska v1.3.0

Video
ID                               : 1
Format                           : AVC
Format/Info                      : Advanced Video Codec
Format profile                   : High@L4.0
Format settings, CABAC           : Yes
Format settings, ReFrames        : 3 frames
Muxing mode                      : Header stripping
Codec ID                         : V_MPEG4/ISO/AVC
Duration                         : 2h 45mn
Bit rate mode                    : Variable
Bit rate                         : 3 131 Kbps
Maximum bit rate                 : 25.0 Mbps
Width                            : 1 280 pixels
Height                           : 720 pixels
Display aspect ratio             : 16:9
Frame rate                       : 23.976 fps
Color space                      : YUV
Chroma subsampling               : 4:2:0
Bit depth                        : 8 bits
Scan type                        : Progressive
Bits/(Pixel*Frame)               : 0.142
Stream size                      : 3.53 GiB (81%)
Title                            : SKmbr
Writing library                  : x264 core 114 r1924 08d04a4


Audio
ID                               : 2
Format                           : AC-3
Format/Info                      : Audio Coding 3
Mode extension                   : CM (complete main)
Muxing mode                      : Header stripping
Codec ID                         : A_AC3
Duration                         : 2h 45mn
Bit rate mode                    : Constant
Bit rate                         : 640 Kbps
Channel(s)                       : 6 channels
Channel positions                : Front: L C R, Side: L R, LFE
Sampling rate                    : 48.0 KHz
Bit depth                        : 16 bits
Compression mode                 : Lossy
Stream size                      : 758 MiB (17%)
Title                            : SKmbr
Language                         : English

IMDB: http://www.imdb.com/title/tt1592287/




Ovysis VA UREAZA UN AN NOU FERICIT ALATURI DE CEI DRAGI VOUA!!!
LA MULTI ANI



TypeFilme HD
Last seederLast activity 12:12 ago
Size4.36 GB (4,681,903,765 bytes)
Added2011-12-31 12:28:14
Hits0
Snatched973 time(s)
Upped byADMIN
Num files1 files
Info hash8e0a30f7ed1084f8efa3fa61ffc29b636ea6ed27
Vizualizări: 242 | Adăugat de: ovysis | Rating: 0.0/0
Total comentarii : 0
Prenume *:
Email *:
Cod *:
Calendar
«  Ianuarie 2012  »
LnMrMrcJoiVnSaDm
      1
2345678
9101112131415
16171819202122
23242526272829
3031
Arhiva materialelor
Sondajul nostru
Ce joc preferati?
Total răspunsuri: 14
Mini-chat
200
Siteuri de filme si jocuri
  • Filme Noi
  • Filme Noi
  • Jocuri Online
  • Muzica Noua
  • Youtube
  • Pe-Teava.ro
  • Statistici

    Total online: 1
    Vizitatori: 1
    Utilizatori: 0
    Copyright Xtorrent © 2016